#TITLE:LMS;
#SUBTITLE:;
#ARTIST:Kil Gun;
#TITLETRANSLIT:;
#SUBTITLETRANSLIT:;
#ARTISTTRANSLIT:;
#CREDIT:;
#BANNER:LMS_logo.jpg;
#BACKGROUND:LMS_bg.jpg;
#LYRICSPATH:;
#CDTITLE:Lan.png;
#MUSIC:LMS.mp3;
#OFFSET:-0.040;
#SAMPLESTART:100.000;
#SAMPLELENGTH:12.000;
#SELECTABLE:YES;
#BPMS:0.000=138.000;
#STOPS:;
#BGCHANGES:;
// cache tags:
#FIRSTBEAT:3.500;
#LASTBEAT:340.250;
#SONGFILENAME:Songs/Super Dancer Online/LMS/LMS.sm;
#HASMUSIC:1;
#HASBANNER:1;
#MUSICLENGTH:149.305;
// end cache tags

//---------------dance-single - sky----------------
#NOTES:
     dance-single:
     sky:
     Hard:
     9:
     0.733,0.798,0.375,0.154,0.449,684.000,56.000,23.000,0.000,16.000:

0000
0000
0000
0000
0000
0000
0000
0000
0000
0000
0000
0000
0000
0000
1000
0100
,
0010
0000
0001
0000
0010
0000
1000
0100
0000
0000
0010
0000
0100
0000
0000
0000
,
0001
0000
0000
0000
0010
0000
1000
0100
1000
0000
0000
0000
0000
0000
0000
0000
,
0001
0010
0000
1000
0100
0000
0001
0100
,
0010
0001
0100
0000
1000
0000
0000
0000
,
1020
0000
0100
0000
0000
0000
1000
0100
1000
0000
0001
0000
0100
0000
0000
0000
,
1000
0000
0001
0000
0000
0000
1000
0100
1000
0000
0000
0000
0000
0000
0000
0000
,
0001
0000
1000
0000
0000
0001
0000
0100
0000
0000
1000
0000
0000
0100
0000
0030
,
1002
0000
0000
0000
0100
0000
0000
0000
0000
0000
0010
0100
0010
0000
0000
0003
,
1010
0000
0000
0100
0000
0000
0010
0000
0100
0000
0000
0010
0000
0000
0001
0000
,
1010
0000
0000
0001
0000
0000
0010
0000
0100
0000
0000
0000
0001
1000
0001
1000
,
0100
0000
0000
0010
0000
0000
0100
0000
0010
0000
0000
0000
0001
0100
0001
0100
,
0010
0000
0000
0001
0000
0000
0010
0000
0100
0000
0000
0000
0010
0100
0010
0100
,
0001
0000
0000
0010
0000
0000
0100
0000
0010
0000
0000
0001
0000
0000
0010
0000
,
0100
0000
0000
1000
0000
0000
0100
0000
0010
0000
0000
0000
0001
0100
1000
0010
,
0100
0000
0000
0010
0000
0000
0001
0000
0000
0010
0000
0100
0000
0000
0010
0000
,
0202
0000
0000
0000
0000
0000
0000
0000
0000
0000
0000
0000
0020
0000
0000
0333
,
1000
0100
1000
0100
0010
0001
0010
0001
,
1000
0100
1000
0100
0010
0001
0010
0001
,
1000
0100
1000
0100
0010
0001
0010
0001
,
0100
0000
1000
0100
0000
0000
0011
0000
0000
0100
0010
0000
0000
0000
0001
0000
,
1000
0100
1000
0100
0010
0001
0010
0001
,
1000
0100
1000
0100
0010
0001
0010
0001
,
0010
0001
0010
0001
1000
0100
1000
0100
,
0001
0000
0100
0010
0000
0000
1100
0000
0020
0001
0000
0000
0000
0000
0000
0030
,
0100
1000
0010
0100
0001
0010
0100
1000
,
0100
0000
0010
0000
0001
0000
1000
0000
0010
0000
1000
0001
0010
0000
0100
0000
,
0010
1000
0001
0100
0010
1000
0100
0010
,
1000
0100
0010
0000
0001
0000
0020
0000
0100
0000
0000
0030
1000
0000
0000
0000
,
0100
0001
0010
0100
1000
0100
0010
0100
,
0001
0010
0100
0010
0100
1000
0100
0010
,
0001
0010
0100
0010
0100
1000
0100
1000
,
0001
0010
0001
0100
1000
0010
0100
0010
,
2102
0000
0000
0000
0010
0000
0000
0000
0100
0000
0000
3003
0010
0000
0000
0000
,
0100
0000
0010
0001
0010
0000
0100
0010
,
0201
0000
1000
0000
0010
0000
0001
0300
1000
0000
0010
0000
0100
0000
0001
0000
,
2010
0000
0001
0000
0010
0000
0100
3000
0010
0000
0001
0000
0010
0000
0100
0000
,
2021
0000
0100
0000
0001
0000
0100
3030
0001
0000
0010
0000
0100
0000
1000
0000
,
0102
0010
0100
1000
0100
0010
0103
0010
,
1001
0000
0000
0110
0000
0000
1001
0000
0110
0000
0000
1001
0000
0000
0110
0000
,
2002
0000
0100
0010
0000
0000
3113
0000
,
1000
0000
0010
0000
0101
0000
1000
0000
0010
0000
0100
0000
0010
0001
1000
0000
,
0100
0000
0010
0000
0001
0000
0010
0100
1000
0000
0100
0000
0001
0010
0100
1000
,
0001
0000
0010
0000
0001
0000
0010
0000
0100
0000
0010
0000
0001
0010
0100
1000
,
0100
0000
0010
0000
0001
0000
0010
0100
1000
0000
0010
0000
0001
1000
0100
0010
,
1000
0000
0100
0000
1001
0000
0100
0000
0001
0000
0010
0000
0001
0010
0100
1000
,
0001
0000
0010
0000
0100
0000
0010
0000
0001
0000
0010
0000
0100
1000
0100
0010
,
0001
0100
1000
0010
0001
0010
0100
0000
,
1001
0000
0000
0110
0000
0000
1000
0000
0202
0000
0000
1010
0000
0000
0000
0303
,
1000
0000
0000
0100
0000
0000
0010
0000
0001
0000
0000
0010
0000
0000
0100
0000
,
1000
0000
0010
0000
0100
0000
0001
0000
0010
0000
0100
0000
1000
0100
0010
0001
,
1000
0000
0010
0000
0100
0000
1000
0000
0001
0000
0010
0000
0001
0010
0100
1000
,
0001
0000
0100
0000
0010
0000
1000
0000
0100
0000
0010
0000
0001
0010
0100
1000
,
0010
0000
0001
0000
0100
0000
0010
0000
1000
0000
0001
0000
1000
0100
0010
0001
,
0100
0000
0010
0000
0100
0000
0001
0000
1000
0000
0101
0000
1000
0100
0010
0001
,
1000
0000
0100
0000
0010
0000
0100
0000
1010
0000
1001
0000
0110
0000
0000
0002
,
1000
0000
0100
0000
0010
0000
0200
0000
1000
0000
0010
0003
1000
0000
0010
0300
,
0001
0000
0000
0000
1010
0000
0000
0000
0100
0000
0010
0000
0000
0000
0000
0001
0010
0000
0000
0000
1001
0000
0010
0000
0101
0000
1000
0000
0010
0000
0000
0000
,
0000
0100
0000
0010
0000
1000
0100
0010
0001
0000
0000
0010
0100
1000
0100
0000
,
0000
0010
0000
0000
0100
0000
0010
0000
0001
0010
0100
1000
0100
0010
0001
0010
,
0100
1000
0100
0001
0010
0100
1000
0010
0100
1000
0100
0010
0001
0000
0010
0000
,
0101
0000
0000
0000
1000
0100
0000
0000
0010
0001
0000
0000
0100
0010
0000
0000
,
1000
0001
0000
0000
0100
1000
0000
0000
0010
0000
0001
0000
1000
0100
0010
0001
,
0010
0000
0100
1000
0000
0001
0010
0100
0010
0000
0100
0000
1000
0100
0010
0001
,
1010
0101
1010
0101
0000
0000
0010
0000
,
1000
0000
0100
0000
0010
0000
0100
0000
0001
0000
0010
0000
0100
0010
0001
0010
,
1000
0000
0100
0000
0001
0000
0010
0000
0100
0000
1000
0000
0100
0010
0001
0010
,
1000
0000
0100
0000
1000
0000
0010
0000
0001
0000
0010
0000
0100
1000
0100
0010
,
0001
0000
0010
0000
0100
0000
1000
0000
0100
0000
0010
0000
0001
0010
0100
1000
,
0010
0000
0001
0000
0010
0000
0100
0000
1000
0000
0100
0000
0001
0100
0010
0001
,
1000
0000
0100
0000
0010
0000
0001
0000
0010
0000
0100
0000
1000
0100
0010
0001
,
0100
0010
1000
0100
0010
0001
0010
0100
,
1010
0000
0000
0101
0000
0000
1001
0000
0110
0000
0000
0000
1000
0000
0001
0000
,
0100
0000
0010
0000
1000
0000
0100
0000
0001
0000
0010
0000
1000
0100
0010
0001
,
0100
0000
0010
0000
1000
0000
0100
0000
0010
0000
0001
0000
0010
0100
1000
0100
,
0010
0000
0001
0000
0010
0000
0100
0000
0010
0000
1000
0000
0100
0010
0001
0010
,
1000
0000
0100
0000
0010
0000
0100
0000
1000
0000
0100
0000
0010
0001
0010
0100
,
0001
0000
1000
0000
0100
0000
0010
0000
0001
0000
0010
0000
0100
1000
0100
0010
,
0001
0000
0010
0000
0100
0000
1000
0000
0101
0000
1010
0000
0001
0010
0100
1000
,
0010
0000
0001
0000
0100
0000
0001
0010
0100
0000
1000
0000
0100
0000
0010
0000
,
1001
0000
0000
0110
0000
0000
0101
0000
2020
0000
0000
0000
0100
0000
0000
3030
,
0101
0000
0000
0010
0001
0000
0100
0000
1010
0000
0000
0001
0010
0000
0100
0000
,
1001
0000
0010
0001
0010
0000
0100
0000
1010
0000
0001
0000
1000
0100
0001
0010
,
1100
0000
0000
0100
1001
0000
0010
0000
0101
0000
0010
1000
0100
0010
0000
0000
,
1021
0000
0000
0000
0100
0000
0000
0000
1000
0000
0000
0000
0100
0000
0000
0031
,
0100
1000
0000
0000
0000
0000
0000
0000
0000
0000
0000
0000
0000
0000
0000
0000
;
